http://lisomania.net http://lisomania.net/forum/index.php Хостинг изображений Поиск Как скачать Контакты
ЛисоМания

Регистрация
Добро   пожаловать!       Будьте   вежливы,   пользуйтесь   поиском   и   не   нарушайте   правила!

Sony PlayStation 2
Вернуться   ЛисоМания > Игры для PlayStation 2 (PS2) > Игры для PlayStation 2 (PS2) - Russian версии > SoundTracks
SoundTracks >
Музыка из игр PS2
Как скачать.


 
Опции темы Поиск в этой теме
Старый 13.12.2012, 14:51   #1
Sawyer вне форума
Ukraine
Регистрация: 24.05.2009
Пол: Мужской
свернуть/развернуть VIP персона

По умолчанию Metal Gear Solid 4: Guns of the Patriots OST FLAC, lossless (SoundTracks)

Metal Gear Solid 4: Guns of the Patriots OST FLAC, lossless














Страна: Япония
Жанр: Soundtrack
Формат: FLAC
Битрейт аудио: 320 kbps
Размер архива: 750 mb

Трэклист:

Disc 1:

01. Old Snake
02. Love Theme
03. Gekko
04. Haven Troopers
05. BB Corps
06. Drebin 893
07. Vista Mansion
08. Laughing Octopus
09. Breakthrough
10. Endless Pain
11. White Blood
12. Call Me Hal
13. Midnight Shadow
14. Paradise Lost
15. Great Escape
16. Desperate Chase
17. Raging Raven
18. Confrontation
19. Mobs Alive
20. Violent Ceasefire


Disc 1 Лог EAC:

Exact Audio Copy V0.99 prebeta 4 from 23. January 2008

EAC extraction logfile from 5. June 2008, 4:26

Various / Metal Gear Solid 4 Guns of the Patriots - Original Soundtrack

Used drive : LITE-ON DVDRW LH-20A1S Adapter: 4 ID: 0

Read mode : Secure
Utilize accurate stream : Yes
Defeat audio cache : Yes
Make use of C2 pointers : No

Read offset correction : 6
Overread into Lead-In and Lead-Out : No
Fill up missing offset samples with silence : Yes
Delete leading and trailing silent blocks : No
Null samples used in CRC calculations : Yes
Used interface : Native Win32 interface for Win NT & 2000
Gap handling : Appended to previous track

Used output format : User Defined Encoder
Selected bitrate : 128 kBit/s
Quality : High
Add ID3 tag : No
Command line compressor : E:\1\FLAC\flac.exe
Additional command line options : -V -8 -T \"artist=%a\" -T \"title=%t\" -T \"album=%g\" -T \"date=%y\" -T \"tracknumber=%n\" -T \"genre=%m\" %s

TOC of the extracted CD

Track | Start | Length | Start sector | End sector
---------------------------------------------------------
1 | 0:00.00 | 3:53.04 | 0 | 17478
2 | 3:53.04 | 7:09.36 | 17479 | 49689
3 | 11:02.40 | 2:53.34 | 49690 | 62698
4 | 13:55.74 | 3:40.06 | 62699 | 79204
5 | 17:36.05 | 3:43.54 | 79205 | 95983
6 | 21:19.59 | 3:29.55 | 95984 | 111713
7 | 24:49.39 | 1:32.24 | 111714 | 118637
8 | 26:21.63 | 2:20.54 | 118638 | 129191
9 | 28:42.42 | 3:09.00 | 129192 | 143366
10 | 31:51.42 | 2:46.60 | 143367 | 155876
11 | 34:38.27 | 2:50.05 | 155877 | 168631
12 | 37:28.32 | 3:02.19 | 168632 | 182300
13 | 40:30.51 | 2:59.03 | 182301 | 195728
14 | 43:29.54 | 4:14.11 | 195729 | 214789
15 | 47:43.65 | 2:15.18 | 214790 | 224932
16 | 49:59.08 | 2:58.20 | 224933 | 238302
17 | 52:57.28 | 2:35.44 | 238303 | 249971
18 | 55:32.72 | 3:10.57 | 249972 | 264278
19 | 58:43.54 | 3:24.52 | 264279 | 279630
20 | 62:08.31 | 2:08.57 | 279631 | 289287

Track 1

Filename E:\3\eac\flac\mgs4\2\01 - Old Snake.wav

Pre-gap length 0:00:02.00

Peak level 97.9 %
Track quality 100.0 %
Test CRC B32CC58B
Copy CRC B32CC58B
Copy OK

Track 2

Filename E:\3\eac\flac\mgs4\2\02 - Love Theme.wav

Pre-gap length 0:00:00.40

Peak level 94.2 %
Track quality 100.0 %
Test CRC 158A3CEE
Copy CRC 158A3CEE
Copy OK

Track 3

Filename E:\3\eac\flac\mgs4\2\03 - Gekko.wav

Pre-gap length 0:00:01.77

Peak level 91.3 %
Track quality 100.0 %
Test CRC 0C51512B
Copy CRC 0C51512B
Copy OK

Track 4

Filename E:\3\eac\flac\mgs4\2\04 - Haven Troopers.wav

Pre-gap length 0:00:00.40

Peak level 99.2 %
Track quality 100.0 %
Test CRC F9DBBFC7
Copy CRC F9DBBFC7
Copy OK

Track 5

Filename E:\3\eac\flac\mgs4\2\05 - BB Corps.wav

Peak level 89.8 %
Track quality 100.0 %
Test CRC 2469BB46
Copy CRC 2469BB46
Copy OK

Track 6

Filename E:\3\eac\flac\mgs4\2\06 - Drebin 893.wav

Pre-gap length 0:00:00.40

Peak level 84.2 %
Track quality 99.9 %
Test CRC 034D473A
Copy CRC 034D473A
Copy OK

Track 7

Filename E:\3\eac\flac\mgs4\2\07 - Vista Mansion.wav

Pre-gap length 0:00:00.40

Peak level 95.1 %
Track quality 99.8 %
Test CRC B192CE22
Copy CRC B192CE22
Copy OK

Track 8

Filename E:\3\eac\flac\mgs4\2\08 - Laughing Octopus.wav

Peak level 93.5 %
Track quality 100.0 %
Test CRC D81FDAFC
Copy CRC D81FDAFC
Copy OK

Track 9

Filename E:\3\eac\flac\mgs4\2\09 - Breakthrough.wav

Pre-gap length 0:00:01.36

Peak level 93.6 %
Track quality 100.0 %
Test CRC 1A360A15
Copy CRC 1A360A15
Copy OK

Track 10

Filename E:\3\eac\flac\mgs4\2\10 - Endless Pain.wav

Peak level 94.2 %
Track quality 100.0 %
Test CRC 5694BF62
Copy CRC 5694BF62
Copy OK

Track 11

Filename E:\3\eac\flac\mgs4\2\11 - White Blood.wav

Pre-gap length 0:00:00.40

Peak level 91.3 %
Track quality 100.0 %
Test CRC B7BCAE9B
Copy CRC B7BCAE9B
Copy OK

Track 12

Filename E:\3\eac\flac\mgs4\2\12 - Call Me Hal.wav

Pre-gap length 0:00:00.77

Peak level 82.7 %
Track quality 100.0 %
Test CRC CEBEB363
Copy CRC CEBEB363
Copy OK

Track 13

Filename E:\3\eac\flac\mgs4\2\13 - Midnight Shadow.wav

Pre-gap length 0:00:00.40

Peak level 95.3 %
Track quality 100.0 %
Test CRC 2EC23EDA
Copy CRC 2EC23EDA
Copy OK

Track 14

Filename E:\3\eac\flac\mgs4\2\14 - Paradise Lost.wav

Pre-gap length 0:00:00.40

Peak level 98.5 %
Track quality 100.0 %
Test CRC 4141FC31
Copy CRC 4141FC31
Copy OK

Track 15

Filename E:\3\eac\flac\mgs4\2\15 - Great Escape.wav

Pre-gap length 0:00:00.93

Peak level 85.5 %
Track quality 100.0 %
Test CRC 1275A6F6
Copy CRC 1275A6F6
Copy OK

Track 16

Filename E:\3\eac\flac\mgs4\2\16 - Desperate Chase.wav

Pre-gap length 0:00:00.40

Peak level 100.0 %
Track quality 100.0 %
Test CRC 1265918D
Copy CRC 1265918D
Copy OK

Track 17

Filename E:\3\eac\flac\mgs4\2\17 - Raging Raven.wav

Pre-gap length 0:00:00.92

Peak level 98.6 %
Track quality 100.0 %
Test CRC B4450F09
Copy CRC B4450F09
Copy OK

Track 18

Filename E:\3\eac\flac\mgs4\2\18 - Confrontation.wav

Pre-gap length 0:00:00.74

Peak level 89.3 %
Track quality 100.0 %
Test CRC A262D132
Copy CRC A262D132
Copy OK

Track 19

Filename E:\3\eac\flac\mgs4\2\19 - Mobs Alive.wav

Pre-gap length 0:00:00.40

Peak level 91.0 %
Track quality 100.0 %
Test CRC F6F977B4
Copy CRC F6F977B4
Copy OK

Track 20

Filename E:\3\eac\flac\mgs4\2\20 - Violent Ceasefire.wav

Pre-gap length 0:00:00.40

Peak level 69.7 %
Track quality 100.0 %
Test CRC A337879A
Copy CRC A337879A
Copy OK

No errors occurred

End of status report


Disc 2:

01. Next-Gen Control
02. Crying Wolf
03. One More Reboot
04. Sin
05. Atonement
06. Infinite Loop
07. Everything Ends
08. At Dawn
09. Screaming Mantis
10. Guns of the Patriots
11. No Place to Hide
12. Sorrow
13. Full Circle
14. Everything Begins
15. Father & Son
16. Metal Gear Saga
17. HERE'S TO YOU from the film 'Sacco e Vanzetti'
18. War Zone
19. A Rebellion Rests
20. The Hunter
21. The Hunted
22. Forced Hand
23. Under Curfew
24. Unmanned Army
25. Cold Memories
26. For Liberty
27. Surrounded


Disc 2 Лог EAC

Exact Audio Copy V0.99 prebeta 4 from 23. January 2008

EAC extraction logfile from 5. June 2008, 13:32

Various / Metal Gear Solid 4 Guns of the Patriots - Original Soundtrack

Used drive : LITE-ON DVDRW LH-20A1S Adapter: 4 ID: 0

Read mode : Secure
Utilize accurate stream : Yes
Defeat audio cache : Yes
Make use of C2 pointers : No

Read offset correction : 6
Overread into Lead-In and Lead-Out : No
Fill up missing offset samples with silence : Yes
Delete leading and trailing silent blocks : No
Null samples used in CRC calculations : Yes
Used interface : Native Win32 interface for Win NT & 2000
Gap handling : Not detected, thus appended to previous track

Used output format : User Defined Encoder
Selected bitrate : 128 kBit/s
Quality : High
Add ID3 tag : No
Command line compressor : E:\1\FLAC\flac.exe
Additional command line options : -V -8 -T \"artist=%a\" -T \"title=%t\" -T \"album=%g\" -T \"date=%y\" -T \"tracknumber=%n\" -T \"genre=%m\" %s

TOC of the extracted CD

Track | Start | Length | Start sector | End sector
---------------------------------------------------------
1 | 0:00.00 | 4:41.25 | 0 | 21099
2 | 4:41.25 | 2:11.64 | 21100 | 30988
3 | 6:53.14 | 1:42.20 | 30989 | 38658
4 | 8:35.34 | 1:45.73 | 38659 | 46606
5 | 10:21.32 | 4:49.14 | 46607 | 68295
6 | 15:10.46 | 3:38.42 | 68296 | 84687
7 | 18:49.13 | 2:31.67 | 84688 | 96079
8 | 21:21.05 | 3:31.51 | 96080 | 111955
9 | 24:52.56 | 2:40.26 | 111956 | 123981
10 | 27:33.07 | 4:07.41 | 123982 | 142547
11 | 31:40.48 | 2:38.17 | 142548 | 154414
12 | 34:18.65 | 3:53.27 | 154415 | 171916
13 | 38:12.17 | 1:38.67 | 171917 | 179333
14 | 39:51.09 | 4:25.60 | 179334 | 199268
15 | 44:16.69 | 2:31.18 | 199269 | 210611
16 | 46:48.12 | 4:19.69 | 210612 | 230105
17 | 51:08.06 | 5:50.57 | 230106 | 256412
18 | 56:58.63 | 1:28.28 | 256413 | 263040
19 | 58:27.16 | 2:46.14 | 263041 | 275504
20 | 61:13.30 | 2:05.73 | 275505 | 284952
21 | 63:19.28 | 2:01.59 | 284953 | 294086
22 | 65:21.12 | 2:08.73 | 294087 | 303759
23 | 67:30.10 | 1:51.03 | 303760 | 312087
24 | 69:21.13 | 1:28.30 | 312088 | 318717
25 | 70:49.43 | 1:37.03 | 318718 | 325995
26 | 72:26.46 | 1:58.13 | 325996 | 334858
27 | 74:24.59 | 1:59.13 | 334859 | 343796

Track 1

Filename E:\3\eac\flac\mgs4\2\b\01 - Next-Gen Control.wav

Peak level 96.2 %
Track quality 100.0 %
Test CRC 7839BEFB
Copy CRC 7839BEFB
Copy OK

Track 2

Filename E:\3\eac\flac\mgs4\2\b\02 - Crying Wolf.wav

Peak level 93.3 %
Track quality 99.9 %
Test CRC 77647F0A
Copy CRC 77647F0A
Copy OK

Track 3

Filename E:\3\eac\flac\mgs4\2\b\03 - One More Reboot.wav

Peak level 92.9 %
Track quality 99.8 %
Test CRC EFA8AFAE
Copy CRC EFA8AFAE
Copy OK

Track 4

Filename E:\3\eac\flac\mgs4\2\b\04 - Sin.wav

Peak level 96.9 %
Track quality 100.0 %
Test CRC 181DF80D
Copy CRC 181DF80D
Copy OK

Track 5

Filename E:\3\eac\flac\mgs4\2\b\05 - Atonement.wav

Peak level 95.1 %
Track quality 100.0 %
Test CRC 654DCC64
Copy CRC 654DCC64
Copy OK

Track 6

Filename E:\3\eac\flac\mgs4\2\b\06 - Infinite Loop.wav

Peak level 88.8 %
Track quality 100.0 %
Test CRC 1CC35451
Copy CRC 1CC35451
Copy OK

Track 7

Filename E:\3\eac\flac\mgs4\2\b\07 - Everything Ends.wav

Peak level 85.1 %
Track quality 100.0 %
Test CRC B401C245
Copy CRC B401C245
Copy OK

Track 8

Filename E:\3\eac\flac\mgs4\2\b\08 - At Dawn.wav

Peak level 89.0 %
Track quality 100.0 %
Test CRC ACB6B282
Copy CRC ACB6B282
Copy OK

Track 9

Filename E:\3\eac\flac\mgs4\2\b\09 - Screaming Mantis.wav

Peak level 93.3 %
Track quality 100.0 %
Test CRC C3471068
Copy CRC C3471068
Copy OK

Track 10

Filename E:\3\eac\flac\mgs4\2\b\10 - Guns of the Patriots.wav

Peak level 91.4 %
Track quality 100.0 %
Test CRC 728BC675
Copy CRC 728BC675
Copy OK

Track 11

Filename E:\3\eac\flac\mgs4\2\b\11 - No Place to Hide.wav

Peak level 92.5 %
Track quality 100.0 %
Test CRC 40B430F5
Copy CRC 40B430F5
Copy OK

Track 12

Filename E:\3\eac\flac\mgs4\2\b\12 - Sorrow.wav

Peak level 89.2 %
Track quality 100.0 %
Test CRC B8C3D335
Copy CRC B8C3D335
Copy OK

Track 13

Filename E:\3\eac\flac\mgs4\2\b\13 - Full Circle.wav

Peak level 84.0 %
Track quality 100.0 %
Test CRC 99E89A7A
Copy CRC 99E89A7A
Copy OK

Track 14

Filename E:\3\eac\flac\mgs4\2\b\14 - Everything Begins.wav

Peak level 75.9 %
Track quality 100.0 %
Test CRC 476DA8EE
Copy CRC 476DA8EE
Copy OK

Track 15

Filename E:\3\eac\flac\mgs4\2\b\15 - Father & Son.wav

Peak level 92.4 %
Track quality 100.0 %
Test CRC 3F0DBE05
Copy CRC 3F0DBE05
Copy OK

Track 16

Filename E:\3\eac\flac\mgs4\2\b\16 - Metal Gear Saga.wav

Peak level 100.0 %
Track quality 100.0 %
Test CRC F20649D8
Copy CRC F20649D8
Copy OK

Track 17

Filename E:\3\eac\flac\mgs4\2\b\17 - HERE'S TO YOU from the film 'Sacco e Vanzetti'.wav

Peak level 93.6 %
Track quality 100.0 %
Test CRC ED9269EF
Copy CRC ED9269EF
Copy OK

Track 18

Filename E:\3\eac\flac\mgs4\2\b\18 - War Zone.wav

Peak level 100.0 %
Track quality 100.0 %
Test CRC 2DE3CCE0
Copy CRC 2DE3CCE0
Copy OK

Track 19

Filename E:\3\eac\flac\mgs4\2\b\19 - A Rebellion Rests.wav

Peak level 93.6 %
Track quality 100.0 %
Test CRC 460F364E
Copy CRC 460F364E
Copy OK

Track 20

Filename E:\3\eac\flac\mgs4\2\b\20 - The Hunter.wav

Peak level 100.0 %
Track quality 100.0 %
Test CRC 60716B8A
Copy CRC 60716B8A
Copy OK

Track 21

Filename E:\3\eac\flac\mgs4\2\b\21 - The Hunted.wav

Peak level 91.5 %
Track quality 100.0 %
Test CRC 00D0BB8A
Copy CRC 00D0BB8A
Copy OK

Track 22

Filename E:\3\eac\flac\mgs4\2\b\22 - Forced Hand.wav

Peak level 92.6 %
Track quality 100.0 %
Test CRC 7D9ED313
Copy CRC 7D9ED313
Copy OK

Track 23

Filename E:\3\eac\flac\mgs4\2\b\23 - Under Curfew.wav

Peak level 90.7 %
Track quality 100.0 %
Test CRC AC5104F2
Copy CRC AC5104F2
Copy OK

Track 24

Filename E:\3\eac\flac\mgs4\2\b\24 - Unmanned Army.wav

Peak level 97.1 %
Track quality 100.0 %
Test CRC C444D47B
Copy CRC C444D47B
Copy OK

Track 25

Filename E:\3\eac\flac\mgs4\2\b\25 - Cold Memories.wav

Peak level 85.2 %
Track quality 100.0 %
Test CRC 100BC8B3
Copy CRC 100BC8B3
Copy OK

Track 26

Filename E:\3\eac\flac\mgs4\2\b\26 - For Liberty.wav

Peak level 92.1 %
Track quality 100.0 %
Test CRC D644B697
Copy CRC D644B697
Copy OK

Track 27

Filename E:\3\eac\flac\mgs4\2\b\27 - Surrounded.wav

Peak level 87.6 %
Track quality 100.0 %
Test CRC 2F52F7C7
Copy CRC 2F52F7C7
Copy OK

No errors occurred

End of status report
Вложения
Тип файла: torrent Metal Gear Solid - Guns of the Patriots OST.7z[lisomania.net].torrent (28.6 Кб, 7 просмотров)
__________________


 
Не забывайте про наш хостинг изображений picturezzz.ru

Ответ

Реклама спонсора

Опции темы Поиск в этой теме
Поиск в этой теме:

Расширенный поиск

Ваши права в разделе
Вы не можете создавать новые темы
Вы не можете отвечать в темах
Вы не можете прикреплять вложения
Вы не можете редактировать свои сообщения

BB коды Вкл.
Смайлы Вкл.
[IMG] код Вкл.
HTML код Выкл.

Быстрый переход

Похожие темы
Тема Автор Раздел Ответов Последнее сообщение
Metal Gear Solid: Integral (русские версии / PSX-PSP) Lis5131 Action/Adventure 28 19.01.2017 00:48
Metal Gear Solid: Integral (русские версии / SLPM-86247 / 86248 / 86249) Sawyer Action/Adventure 20 09.03.2015 12:43
Bleemcast: Gran Turismo 2, Tekken 3, Metal Gear Solid VolkodaV Программы и эмуляторы 9 07.09.2012 19:02
Metal Gear Solid + VR Missions (eng / SLUS_005.94 / SLUS_007.76 + SLUS_009.57) Lis5131 Игры для PlayStation (NTSC) 0 17.06.2011 20:01


Rambler's Top100
Powered by vBulletin® Version 3.8.4
Copyright ©2000 - 2018, Jelsoft Enterprises Ltd. Перевод: zCarot. Трекер: Yo vBTT v.2.
ЛисоМания
 
Текущее время: 21:46. Часовой пояс GMT +3.